Aimi Yoshikawa - Super High-Class Rookie Soapland Lady [STAR-431] (SOD Create) [cen] [2013 г., Club Hostess & Sex Worker, Big Tits, Titty Fuck, DVDRip]

 Статистика раздачи 
Размер: 2.67 ГБ   |  Зарегистрирован: 11 янв 2019, 03:43   |   .torrent скачан: 0 раз
Сидеров: 3  [ 0 байт/сек ]     Личеров: 0  [ 0 байт/сек ]  
  
Случайная аватара
Раздал: 2 ГБ
Скачал: 0 байт
Ратио: Seed.
Сообщения: 97092
Зарегистрирован: 12 окт 2015, 17:13

Aimi Yoshikawa - Super High-Class Rookie Soapland Lady [STAR-431] (SOD Create) [cen] [2013 г., Club Hostess & Sex Worker, Big Tits, Titty Fuck, DVDRip]

Сообщение James Deen » 11 янв 2019, 03:43

Super High-Class Rookie Soapland Lady Aimi Yoshikawa

Год производства: 2013 г.
Страна: Япония
Жанр: Club Hostess & Sex Worker, Big Tits, Titty Fuck
Продолжительность: 03:15:48
Цензура: Есть во всех файлах

Язык: Японский

Студийный код фильма: STAR-431
Режиссер: Sousaki Ichi
Студия: SOD Create

В ролях: Aimi Yoshikawa

Доп. информация: Рип с этого источника: https://pornolab.net/forum/viewtopic.php?t=1663686

Качество видео: DVDRip
Формат видео: MP4
Видео: x264, 720x480, 59.940 (60000/1001) FPS, 1 777 kb/s
Аудио: AAC, 48.0 kHz, 2 channels, 160 kb/s
MediaInfo
Код:
Код: Выделить всё
General
Complete name                            : STAR-431.m4v
Format                                   : MPEG-4
Format profile                           : Base Media / Version 2
Codec ID                                 : mp42 (isom/iso2/avc1/mp41)
File size                                : 2.67 GiB
Duration                                 : 3 h 15 min
Overall bit rate                         : 1 953 kb/s
Encoded date                             : UTC 2019-01-08 12:38:37
Tagged date                              : UTC 2019-01-08 12:38:37
Writing application                      : HandBrake 1.2.0 2018122200

Video
ID                                       : 1
Format                                   : AVC
Format/Info                              : Advanced Video Codec
Format profile                           : [email protected]
Format settings                          : CABAC / 9 Ref Frames
Format settings, CABAC                   : Yes
Format settings, ReFrames                : 9 frames
Codec ID                                 : avc1
Codec ID/Info                            : Advanced Video Coding
Duration                                 : 3 h 15 min
Bit rate                                 : 1 777 kb/s
Width                                    : 720 pixels
Height                                   : 480 pixels
Display aspect ratio                     : 16:9
Original display aspect ratio            : 16:9
Frame rate                               : 59.940 (60000/1001) FPS
Color space                              : YUV
Chroma subsampling                       : 4:2:0
Bit depth                                : 8 bits
Scan type                                : Progressive
Bits/(Pixel*Frame)                       : 0.086
Stream size                              : 2.43 GiB (91%)
Writing library                          : x264 core 152 r2854 e9a5903
Encoding settings                        : cabac=1 / ref=9 / deblock=1:-1:-1 / analyse=0x3:0x133 / me=umh / subme=10 / psy=1 / psy_rd=1,00:0,15 / mixed_ref=1 / me_range=24 / chroma_me=1 / trellis=2 / 8x8dct=1 / cqm=0 / deadzone=21,11 / fast_pskip=0 / chroma_qp_offset=-3 / threads=6 / lookahead_threads=1 / sliced_threads=0 / nr=0 / decimate=1 / interlaced=0 / bluray_compat=0 / constrained_intra=0 / bframes=9 / b_pyramid=2 / b_adapt=2 / b_bias=0 / direct=3 / weightb=1 / open_gop=0 / weightp=2 / keyint=600 / keyint_min=60 / scenecut=40 / intra_refresh=0 / rc_lookahead=60 / rc=crf / mbtree=1 / crf=19,0 / qcomp=0,60 / qpmin=0 / qpmax=69 / qpstep=4 / ip_ratio=1,40 / aq=1:1,00
Encoded date                             : UTC 2019-01-08 12:38:37
Tagged date                              : UTC 2019-01-08 12:38:37
Color range                              : Limited
Color primaries                          : BT.601 NTSC
Transfer characteristics                 : BT.709
Matrix coefficients                      : BT.601
Menus                                    : 3

Audio
ID                                       : 2
Format                                   : AAC
Format/Info                              : Advanced Audio Codec
Format profile                           : LC
Codec ID                                 : mp4a-40-2
Duration                                 : 3 h 15 min
Bit rate mode                            : Constant
Bit rate                                 : 160 kb/s
Channel(s)                               : 2 channels
Channel positions                        : Front: L R
Sampling rate                            : 48.0 kHz
Frame rate                               : 46.875 FPS (1024 SPF)
Compression mode                         : Lossy
Stream size                              : 224 MiB (8%)
Title                                    : Stereo
Language                                 : Japanese
Default                                  : Yes
Alternate group                          : 1
Encoded date                             : UTC 2019-01-08 12:38:37
Tagged date                              : UTC 2019-01-08 12:38:37
Menus                                    : 3

Menu
ID                                       : 3
Codec ID                                 : text
Duration                                 : 3 h 15 min
Language                                 : English
Encoded date                             : UTC 2019-01-08 12:38:37
Tagged date                              : UTC 2019-01-08 12:38:37
Menu For                                 : 1,2
00:00:00.000                             : Chapter 1
00:01:01.061                             : Chapter 2
00:06:03.430                             : Chapter 3
00:14:51.958                             : Chapter 4
00:19:15.221                             : Chapter 5
00:22:55.441                             : Chapter 6
00:29:14.820                             : Chapter 7
00:33:07.552                             : Chapter 8
00:34:56.161                             : Chapter 9
00:37:51.770                             : Chapter 10
00:42:00.518                             : Chapter 11
00:49:17.955                             : Chapter 12
00:53:15.192                             : Chapter 13
00:57:58.475                             : Chapter 14
01:03:13.790                             : Chapter 15
01:08:54.130                             : Chapter 16
01:13:43.419                             : Chapter 17
01:18:48.057                             : Chapter 18
01:21:51.006                             : Chapter 19
01:26:36.224                             : Chapter 20
01:28:51.993                             : Chapter 21
01:34:31.833                             : Chapter 22
01:40:13.908                             : Chapter 23
01:43:18.559                             : Chapter 24
01:46:10.731                             : Chapter 25
01:50:36.763                             : Chapter 26
01:58:35.508                             : Chapter 27
02:02:55.768                             : Chapter 28
02:05:30.023                             : Chapter 29
02:08:56.929                             : Chapter 30
02:12:37.149                             : Chapter 31
02:17:51.463                             : Chapter 32
02:21:13.865                             : Chapter 33
02:24:16.047                             : Chapter 34
02:29:28.626                             : Chapter 35
02:32:50.361                             : Chapter 36
02:37:54.565                             : Chapter 37
02:41:50.701                             : Chapter 38
02:43:04.141                             : Chapter 39
02:48:39.376                             : Chapter 40
02:52:29.005                             : Chapter 41
02:56:54.838                             : Chapter 42
02:58:25.728                             : Chapter 43
03:01:52.034                             : Chapter 44
03:06:45.628                             : Chapter 45
03:09:11.540                             : Chapter 46
03:11:16.432                             : Chapter 47
03:15:25.063                             : Chapter 48
Bit rate mode                            : VBR

Скриншоты
Торрент приватный (DHT\PeX запрещены)
 
   
Торрент:
Зарегистрирован [11 янв 2019, 03:43]
Скачать торрент Магнет ссылка
Скачать торрент
[ Размер 53.79 КБ / Просмотров 34 ]
Статус:
Проверен
 
.torrent скачан: 0 раз
Хэш: d70d98fbcd3fdf422dca4e02a10f20c856bf0fe8
Размер: 2.67 ГБ (2 868 374 944 байт)
Стать Автором раздачи
 

Вернуться в Фильмы с сюжетом (HD Video) / Feature & Vignettes (HD Video)

Кто сейчас на конференции

Сейчас эту тему просматривают: нет зарегистрированных пользователей и гости: 1


Ресурс не предоставляет электронные версии произведений, а занимается лишь коллекционированием и каталогизацией ссылок, присылаемых и публикуемых на форуме нашими читателями. Если вы являетесь правообладателем какого-либо представленного материала и не желаете чтобы ссылка на него находилась в нашем каталоге, свяжитесь с нами и мы незамедлительно удалим её. Файлы для обмена на трекере предоставлены пользователями сайта, и администрация не несёт ответственности за их содержание. Просьба не заливать файлы, защищенные авторскими правами, а также файлы нелегального содержания!
cron