Bokunyu-Nurse's HAPPY HOSPITAL [2016] [jap / rus / chi] / Makeup sex with a little sister never was so hard [2017] [jap / rus / chi] / Service ace [2018] [jap] / Because a niece came to play in summer vacation, only gave it a guarana [2019] [jap

 Статистика раздачи 
Размер: 5.58 ГБ   |  Зарегистрирован: 15 апр 2019, 06:56   |   .torrent скачан: 10 раз
Сидеров: 2  [ 0 байт/сек ]     Личеров: 0  [ 0 байт/сек ]  
  
Аватара пользователя
Раздал: 182.41 ГБ
Скачал: 0 байт
Ратио: Seed.
Сообщения: 100142
Зарегистрирован: 12 окт 2015, 17:13

Bokunyu-Nurse's HAPPY HOSPITAL [2016] [jap / rus / chi] / Makeup sex with a little sister never was so hard [2017] [jap / rus / chi] / Service ace [2018] [jap] / Because a niece came to play in summer vacation, only gave it a guarana [2019] [jap

Сообщение James Deen » 15 апр 2019, 06:56



Bokunyu-Nurse's HAPPY HOSPITAL
爆乳ナースのハッピーホスピタル
Грудастая медсестра

Год выпуска: 2016
Жанр: hospital, nurse, big breast, oral, paizuri, creampie
Серии: ep. 1 of 1
Продолжительность: 35mn
Цензура: Есть во всех файлах

Озвучка: Японская оригинальная
Субтитры: Японские встроенные неотключаемые (хардсаб)
Субтитры: Русские [торрент иваниваныч] внешние ASS
Субтитры: Китайские [yosakura.sub] внешние ASS

Студия: anzuworks

Описание: Парню оставалось лежать в больнице всего неделю, но тут пришла новая медсестра. Она красивая, милая, и у неё огромная грудь! Надо повременить с выпиской...

CV: Ao Inukai

http://www.dlsite.com/ecchi-eng/work/=/product_id/RE182386.html

Качество видео: WEB-DL
Разрешение видео: 720p
Формат видео: WMV
Видео: 1280-720, 16-9, 30 fps, VC-1/WMV3, 4493 kbps
Аудио: jpn, WMA, Stereo, 44.1 KHz, 192 kbps
Скринлист
MediaInfo
General
Complete name : Bokunyu-nurse's HAPPY HOSPITAL [E5A2C0C6].wmv
Format : Windows Media
File size : 1.14 GiB
Duration : 34 min 36 s
Overall bit rate mode : Variable
Overall bit rate : 4 714 kb/s
Maximum Overall bit rate : 10.5 Mb/s
Encoded date : UTC 2016-08-13 04:08:09.567

Video
ID : 2
Format : VC-1
Format profile : [email protected]
Codec ID : WMV3
Codec ID/Info : Windows Media Video 9
Codec ID/Hint : WMV3
Description of the codec : Windows Media Video 9 - Professional
Duration : 34 min 36 s
Bit rate mode : Variable
Bit rate : 4 493 kb/s
Width : 1 280 pixels
Height : 720 pixels
Display aspect ratio : 16:9
Frame rate : 30.000 FPS
Color space : YUV
Chroma subsampling : 4:2:0
Bit depth : 8 bits
Scan type : Progressive
Compression mode : Lossy
Bits/(Pixel*Frame) : 0.163
Stream size : 1.09 GiB (95%)
NumberOfFrames : 62294

Audio
ID : 1
Format : WMA
Format version : Version 2
Codec ID : 161
Codec ID/Info : Windows Media Audio
Description of the codec : Windows Media Audio 9.2 - 192 kbps, 44 kHz, stereo 1-pass CBR
Duration : 34 min 36 s
Bit rate mode : Constant
Bit rate : 192 kb/s
Channel(s) : 2 channels
Sampling rate : 44.1 kHz
Bit depth : 16 bits
Stream size : 47.5 MiB (4%)
NumberOfFrames : 5590





#77Makeup sex with a little sister never was so hard
Younger sister tonandakandadesonoato which quarrelled had sex badly
ケンカした妹となんだかんだでそのあと滅茶苦茶セックスした
Ссора с младшей сестрой закончилась бурным сексом

Год выпуска: 2017
Жанр: big breast, incest, oral, paizuri, creampie
Серии: ep. 1 of 1
Продолжительность: 31mn
Цензура: Есть во всех файлах

Озвучка: Японская оригинальная
Субтитры: Японские встроенные неотключаемые (хардсаб)
Субтитры: Русские [торрент иваниваныч] внешние ASS
Субтитры: Китайские [yosakura.sub] внешние ASS

Автор оригинала: anzuworks

Описание: Сестрёнка нашла порнофильм братика и пришла разбираться к нему в комнату.

CV: Megumi Morino

http://www.dlsite.com/ecchi-eng/work/=/product_id/RE197754.html
http://www.dmm.co.jp/en/dc/doujin/-/detail/=/cid=d_106601/

Качество видео: WEB-DL
Разрешение видео: 720p
Формат видео: WMV
Видео: 1280-720, 16-9, 30 fps, VC-1/WMV3, 6812 kbps
Аудио: jpn, WMA, Stereo, 44.1 KHz, 192 kbps
Скринлист
MediaInfo
General
Complete name : Younger sister tonandakandadesonoato which quarrelled had sex badly [5C5A2AD1].wmv
Format : Windows Media
File size : 1.50 GiB
Duration : 30 min 34 s
Overall bit rate mode : Variable
Overall bit rate : 7 039 kb/s
Maximum Overall bit rate : 12.6 Mb/s
Encoded date : UTC 2017-01-23 08:08:37.506

Video
ID : 2
Format : VC-1
Format profile : [email protected]
Codec ID : WMV3
Codec ID/Info : Windows Media Video 9
Codec ID/Hint : WMV3
Description of the codec : Windows Media Video 9 - Professional
Duration : 30 min 34 s
Bit rate mode : Variable
Bit rate : 6 812 kb/s
Width : 1 280 pixels
Height : 720 pixels
Display aspect ratio : 16:9
Frame rate : 30.000 FPS
Color space : YUV
Chroma subsampling : 4:2:0
Bit depth : 8 bits
Scan type : Progressive
Compression mode : Lossy
Bits/(Pixel*Frame) : 0.246
Stream size : 1.45 GiB (97%)
NumberOfFrames : 55023

Audio
ID : 1
Format : WMA
Format version : Version 2
Codec ID : 161
Codec ID/Info : Windows Media Audio
Description of the codec : Windows Media Audio 9.2 - 192 kbps, 44 kHz, stereo 1-pass CBR
Duration : 30 min 34 s
Bit rate mode : Constant
Bit rate : 192 kb/s
Channel(s) : 2 channels
Sampling rate : 44.1 kHz
Bit depth : 16 bits
Stream size : 42.0 MiB (3%)
NumberOfFrames : 4937





#77Service ace
サービスエース

Год выпуска: 2018
Жанр: sport, tennis, big breast, oral, paizuri, creampie
Серии: ep. 1 of 1
Продолжительность: 33mn
Цензура: Есть во всех файлах

Озвучка: Японская оригинальная
Субтитры: Японские встроенные неотключаемые (хардсаб)

Студия: anzuworks

Описание: Гуглоперевод! Ace of the women's tennis club where Ponite matches today is also a big success in the game. However, she is a weak personality in pushing against the game and she is forced by a male member to rub the breasts... A healthy and sensitive body wets Anseko, wants Chi-Po, blowjobs fucking blowjob with a fucking cock and it's hot and steaming fast. Although I was disgusted at first at first, I was swinging my back and being caught inside out while making my face red and "Ign !! Igu !!" and sweaty bicubic convulsion cum - !! Humming bite Shisa blowing after the scattering, the cum shot semen is overflowing with Toro ~ Ri!

CV: Megumi Morino

http://www.dlsite.com/maniax/announce/=/product_id/RJ228624.html

Качество видео: WEB-DL
Разрешение видео: 720p
Формат видео: WMV
Видео: 1280-720, 16-9, 30 fps, VC-1/WMV3, 6661 kbps
Аудио: jpn, WMA, Stereo, 44.1 KHz, 192 kbps
Скринлист
MediaInfo
General
Complete name : Service ace [7211EB8F].wmv
Format : Windows Media
File size : 1.60 GiB
Duration : 33 min 15 s
Overall bit rate mode : Variable
Overall bit rate : 6 887 kb/s
Maximum Overall bit rate : 14.8 Mb/s
Encoded date : UTC 2018-06-17 09:39:19.613

Video
ID : 2
Format : VC-1
Format profile : [email protected]
Codec ID : WMV3
Codec ID/Info : Windows Media Video 9
Codec ID/Hint : WMV3
Description of the codec : Windows Media Video 9 - Professional
Duration : 33 min 15 s
Bit rate mode : Variable
Bit rate : 6 661 kb/s
Width : 1 280 pixels
Height : 720 pixels
Display aspect ratio : 16:9
Frame rate : 30.000 FPS
Color space : YUV
Chroma subsampling : 4:2:0
Bit depth : 8 bits
Scan type : Progressive
Compression mode : Lossy
Bits/(Pixel*Frame) : 0.241
Stream size : 1.55 GiB (97%)
NumberOfFrames : 59869

Audio
ID : 1
Format : WMA
Format version : Version 2
Codec ID : 161
Codec ID/Info : Windows Media Audio
Description of the codec : Windows Media Audio 9.2 - 192 kbps, 44 kHz, stereo 1-pass CBR
Duration : 33 min 15 s
Bit rate mode : Constant
Bit rate : 192 kb/s
Channel(s) : 2 channels
Sampling rate : 44.1 kHz
Bit depth : 16 bits
Stream size : 45.7 MiB (3%)
NumberOfFrames : 5372





#77Because a niece came to play in summer vacation, only gave it a guarana
夏休みに姪が遊びに来たからガラナ飲ませただけなんだけど……

Год выпуска: 2019
Жанр: incest, virgin, big breast, oral, paizuri, creampie
Серии: ep. 1 of 1
Продолжительность: 40mn
Цензура: Есть во всех файлах

Озвучка: Японская оригинальная
Субтитры: Японские встроенные неотключаемые (хардсаб)

Студия: anzuworks

Описание: A - - niece kid came over to the play in hot hot summer vacation! The Mei (Mei) of the niece kid who came to "the Uncles" to play after a long absence. How many years do become raw now?……The breast grew wealthily, but the place behaving like a baby innocently does not change with old days. Because it was said that I was thirsty, only let you drink the guarana which I plotted nothing, and there was in the refrigerator commonly……. Say that Mei is Nan, or a body is hot soon……Leaned against my shoulder with a sad expression―― A sex innocent niece knowing nothing at all gets wet with the wet as Virgin, and demand it whether it is a love potion effect or Nan…… "Uncle, request……Somehow or other……tsu" ……Well, what would do?……? Summer niece kid kimeseku (?) Virgin loss Animation!

CV: Government Mimi

https://www.dmm.co.jp/en/dc/doujin/-/detail/=/cid=d_150585/

Качество видео: WEB-DL
Разрешение видео: 720p
Формат видео: MP4
Видео: 1280-720, 16-9, 30 fps, AVC-1, 4460 kbps
Аудио: jpn, AAC, Stereo, 44.1 KHz, 318 kbps
Скринлист
MediaInfo
General
Complete name : Because a niece came to play in summer vacation, only gave it a guarana [3A9DF5B6].mp4
Format : MPEG-4
Format profile : Base Media / Version 2
Codec ID : mp42 (mp42/mp41)
File size : 1.34 GiB
Duration : 40 min 5 s
Overall bit rate mode : Variable
Overall bit rate : 4 782 kb/s
Encoded date : UTC 2019-03-05 05:27:49
Tagged date : UTC 2019-03-05 05:27:57
TIM : 00:00:00:00
TSC : 30
TSZ : 1

Video
ID : 1
Format : AVC
Format/Info : Advanced Video Codec
Format profile : [email protected]
Format settings : CABAC / 4 Ref Frames
Format settings, CABAC : Yes
Format settings, RefFrames : 4 frames
Codec ID : avc1
Codec ID/Info : Advanced Video Coding
Duration : 40 min 5 s
Bit rate : 4 460 kb/s
Width : 1 280 pixels
Height : 720 pixels
Display aspect ratio : 16:9
Frame rate mode : Constant
Frame rate : 30.000 FPS
Color space : YUV
Chroma subsampling : 4:2:0
Bit depth : 8 bits
Scan type : Progressive
Bits/(Pixel*Frame) : 0.161
Stream size : 1.25 GiB (93%)
Language : English
Encoded date : UTC 2019-03-05 05:27:49
Tagged date : UTC 2019-03-05 05:27:49
Color range : Limited
Color primaries : BT.709
Transfer characteristics : BT.709
Matrix coefficients : BT.709
Codec configuration box : avcC

Audio
ID : 2
Format : AAC LC
Format/Info : Advanced Audio Codec Low Complexity
Codec ID : mp4a-40-2
Duration : 40 min 5 s
Source duration : 40 min 5 s
Bit rate mode : Variable
Bit rate : 318 kb/s
Maximum bit rate : 398 kb/s
Channel(s) : 2 channels
Channel layout : L R
Sampling rate : 44.1 kHz
Frame rate : 43.066 FPS (1024 SPF)
Compression mode : Lossy
Stream size : 91.1 MiB (7%)
Source stream size : 91.1 MiB (7%)
Language : English
Encoded date : UTC 2019-03-05 05:27:49
Tagged date : UTC 2019-03-05 05:27:49
 
   
Торрент:
Зарегистрирован [15 апр 2019, 06:56]
Скачать торрент
Скачать торрент
[ Размер 30.2 КБ / Просмотров 16 ]
Статус:
Проверен
 
.torrent скачан: 10 раз
Хэш: 605762264eccd5b056fe0e3013bf84a72a4fd470
Размер: 5.58 ГБ (5 995 322 134 байт)
Стать Автором раздачи
 

Вернуться в Сайтрипы 2019 / SiteRip's 2019

Кто сейчас на конференции

Сейчас эту тему просматривают: нет зарегистрированных пользователей и гости: 1


Ресурс не предоставляет электронные версии произведений, а занимается лишь коллекционированием и каталогизацией ссылок, присылаемых и публикуемых на форуме нашими читателями. Если вы являетесь правообладателем какого-либо представленного материала и не желаете чтобы ссылка на него находилась в нашем каталоге, свяжитесь с нами и мы незамедлительно удалим её. Файлы для обмена на трекере предоставлены пользователями сайта, и администрация не несёт ответственности за их содержание. Просьба не заливать файлы, защищенные авторскими правами, а также файлы нелегального содержания!
cron